<?xml version="1.0" standalone="no"?>
<!DOCTYPE svg PUBLIC "-//W3C//DTD SVG 1.1//EN" "http://www.w3.org/Graphics/SVG/1.1/DTD/svg11.dtd" >
<svg>
<metadata>
Created by FontForge 20120731 at Sat Nov 10 19:45:51 2018
 By www
Copyright 2017 Google Inc. All Rights Reserved.
</metadata>
<defs>
<font id="NotoSansNKo-Regular" horiz-adv-x="0" >
  <font-face 
    font-family="Noto Sans N'Ko"
    font-weight="400"
    font-stretch="normal"
    units-per-em="1000"
    panose-1="2 11 5 2 4 5 4 2 2 4"
    ascent="800"
    descent="-200"
    bbox="-227 -272 900 1059"
    underline-thickness="50"
    underline-position="-75"
    unicode-range="U+000D-FD3F"
  />
    <missing-glyph />
    <glyph glyph-name="afii57381" horiz-adv-x="600" 
d="M94 0v714h411v-714h-411zM145 51h309v612h-309v-612z" />
    <glyph glyph-name="uni0000" 
 />
    <glyph glyph-name="uni0000" 
 />
    <glyph glyph-name="uni000D" unicode="&#xd;" horiz-adv-x="260" 
 />
    <glyph glyph-name="space" unicode=" " horiz-adv-x="260" 
 />
    <glyph glyph-name="afii57388" unicode="&#x60c;" horiz-adv-x="212" 
d="M102 75q-29 0 -45.5 20.5t-16.5 45.5t13.5 60t37 71.5t51.5 66.5l27 -22q-16 -17 -28.5 -42.5t-20 -51t-7.5 -42.5q0 -13 15 -22t41 -17q-5 -29 -23.5 -48t-43.5 -19z" />
    <glyph glyph-name="afii57403" unicode="&#x61b;" horiz-adv-x="212" 
d="M106 311q-28 0 -45 21t-17 44q0 26 13.5 60.5t37 71t51.5 67.5l27 -23q-15 -18 -27.5 -43t-20 -50t-7.5 -42q0 -14 15 -22.5t40 -17.5q-5 -29 -23 -47.5t-44 -18.5zM125 69q-24 17 -44 30t-35 22q16 31 25 46.5t19 31.5q77 -45 77 -59q0 -12 -42 -71z" />
    <glyph glyph-name="afii57407" unicode="&#x61f;" horiz-adv-x="425" 
d="M239 232l-38 24q4 21 5.5 34.5t1.5 20.5q0 20 -16 35q-16 16 -60 41q-38 21 -57.5 48t-19.5 63q0 32 13.5 66.5t38.5 64.5t59.5 48.5t76.5 18.5q74 0 116 -46q7 -8 10.5 -14.5t3.5 -17.5q0 -30 -30 -55q-30 28 -53.5 38t-57.5 10q-46 0 -85 -30.5t-56 -79.5q12 -8 33 -17
q46 -21 75 -38.5t44 -32.5q30 -31 30 -70q0 -43 -34 -111zM217 64q-25 19 -42 30t-37 22q10 15 21 37.5t23 40.5q14 -8 32 -19.5t31 -22t13 -17.5q0 -12 -41 -71z" />
    <glyph glyph-name="glyph7" unicode="&#x66a;" horiz-adv-x="401" 
d="M88 75q-23 18 -35 49q19 41 50.5 104t68.5 136t74.5 145t69.5 132q12 -9 20 -23.5t8 -29.5q0 -10 -3 -16q-32 -60 -68.5 -130.5t-72 -140.5t-65 -129t-47.5 -97zM130 449q-57 42 -96 63q4 8 15 28t22 39.5t17 27.5q20 -11 41.5 -25t36 -27t14.5 -21q0 -16 -50 -85z
M317 121q-25 19 -49 35t-47 29q5 7 16 27l22 40t16 28q19 -10 40.5 -24.5t36.5 -27.5t15 -21q0 -15 -50 -86z" />
    <glyph glyph-name="uni07C0" unicode="&#x7c0;" horiz-adv-x="540" 
d="M277 -10q-116 0 -169.5 96t-53.5 266q0 174 51 268t164 94q109 0 163 -95t54 -267q0 -106 -21.5 -187.5t-67.5 -128t-120 -46.5zM273 68q66 0 95 73t29 209q0 143 -29.5 214.5t-98.5 71.5q-70 0 -98.5 -71.5t-28.5 -214.5q0 -141 30 -211.5t101 -70.5z" />
    <glyph glyph-name="uni07C1" unicode="&#x7c1;" horiz-adv-x="542" 
d="M90 0v78h141v636h131l135 -255l-70 -38l-72 136q-9 17 -20 41.5t-17 39.5q1 -26 1.5 -52.5t0.5 -56.5v-451h161v-78h-391z" />
    <glyph glyph-name="uni07C2" unicode="&#x7c2;" horiz-adv-x="545" 
d="M117 0v714h89v-263h179v263h89v-341h-268v-373h-89z" />
    <glyph glyph-name="uni07C3" unicode="&#x7c3;" horiz-adv-x="514" 
d="M148 0v78h178v204h-178v78h178v354h89v-714h-267z" />
    <glyph glyph-name="uni07C4" unicode="&#x7c4;" horiz-adv-x="539" 
d="M99 0v412h208v302h89v-380h-208v-256h208v-78h-297z" />
    <glyph glyph-name="uni07C5" unicode="&#x7c5;" horiz-adv-x="539" 
d="M143 0v714h89v-302h194v-78h-194v-334h-89z" />
    <glyph glyph-name="uni07C6" unicode="&#x7c6;" horiz-adv-x="525" 
d="M337 0v334h-238v380h89v-302h238v-412h-89z" />
    <glyph glyph-name="uni07C7" unicode="&#x7c7;" horiz-adv-x="542" 
d="M103 0v714h89v-496q0 -30 -0.5 -56.5t-1.5 -52.5q6 15 17.5 39t21.5 41l196 344l70 -38l-282 -495h-110z" />
    <glyph glyph-name="uni07C8" unicode="&#x7c8;" horiz-adv-x="542" 
d="M103 0v714h89v-192h294v-44l-273 -478h-110zM192 218q0 -30 -0.5 -56.5t-1.5 -52.5q6 15 17.5 39t21.5 41l146 255h-183v-226z" />
    <glyph glyph-name="uni07C9" unicode="&#x7c9;" horiz-adv-x="554" 
d="M232 -11v404q-67 11 -102 55t-35 104q0 45 21 81.5t61.5 58.5t98.5 22q92 0 137.5 -47.5t45.5 -116.5q0 -58 -34.5 -102t-103.5 -55v-404h-89zM277 462q33 0 53.5 13.5t29.5 34t9 41.5q0 34 -21.5 62t-70.5 28t-70.5 -27.5t-21.5 -58.5q0 -36 21 -64.5t71 -28.5z" />
    <glyph glyph-name="uni07CA" unicode="&#x7ca;" horiz-adv-x="265" 
d="M88 0v714h89v-714h-89z" />
    <glyph glyph-name="uni07CB" unicode="&#x7cb;" horiz-adv-x="660" 
d="M329 -10q-77 0 -135.5 33.5t-91.5 95t-33 145.5q0 80 35.5 140.5t95 95t132.5 34.5q80 0 138 -35t89.5 -95t31.5 -133q0 -83 -34 -146t-93 -99t-135 -36zM331 68q53 0 90.5 26.5t58 71t20.5 98.5q0 84 -44.5 138t-125.5 54q-50 0 -88 -25t-60 -70t-22 -104
q0 -45 17.5 -88.5t55 -72t98.5 -28.5z" />
    <glyph glyph-name="uni07CC" unicode="&#x7cc;" horiz-adv-x="437" 
d="M174 0v350l-170 364h88l86 -187q10 -22 21 -47.5t19 -48.5q8 23 18.5 47.5t20.5 45.5l88 190h88l-170 -364v-350h-89z" />
    <glyph glyph-name="uni07CD" unicode="&#x7cd;" horiz-adv-x="619" 
d="M31 0l234 513h89l234 -513h-96l-122 269q-17 38 -32 75.5t-29 78.5q-29 -83 -64 -160l-118 -263h-96z" />
    <glyph glyph-name="uni07CE" unicode="&#x7ce;" horiz-adv-x="593" 
d="M88 0v513h89v-435h239v435h89v-513h-417z" />
    <glyph glyph-name="uni07CF" unicode="&#x7cf;" horiz-adv-x="551" 
d="M49 0v78h325v357h-325v78h414v-513h-414z" />
    <glyph glyph-name="uni07D0" unicode="&#x7d0;" horiz-adv-x="645" 
d="M111 0v78h167v227q-110 11 -163 67t-53 135q0 58 28.5 105t87 74.5t146.5 27.5q89 0 146.5 -27.5t85 -74.5t27.5 -105q0 -78 -53.5 -135t-162.5 -67v-227h166v-78h-422zM327 381q77 0 122 35.5t45 90.5q0 59 -46 94t-125 35t-125.5 -35t-46.5 -93q0 -34 17.5 -62.5
t56.5 -46.5t102 -18z" />
    <glyph glyph-name="uni07D1" unicode="&#x7d1;" horiz-adv-x="522" 
d="M210 366l-7 11q9 43 23 94t30.5 102t32.5 96h65q-10 -47 -19.5 -100.5t-17.5 -106t-13 -96.5h-94zM50 0v78h422v-78h-422z" />
    <glyph glyph-name="uni07D2" unicode="&#x7d2;" horiz-adv-x="685" 
d="M299 244v133h-64q-85 0 -137 43.5t-52 129.5q0 46 20.5 83t59 59t94.5 22q80 0 124 -47.5t44 -131.5v-80h209v-455h-89v377h-120v-133h-89zM241 455h58v89q0 35 -18 63.5t-64 28.5q-44 0 -63 -27t-19 -61q0 -43 27 -68t79 -25z" />
    <glyph glyph-name="uni07D3" unicode="&#x7d3;" horiz-adv-x="419" 
d="M88 0v714h263v-78h-174v-206h174v-78h-174v-352h-89z" />
    <glyph glyph-name="uni07D4" unicode="&#x7d4;" horiz-adv-x="419" 
d="M242 0v352h-174v78h174v206h-174v78h263v-714h-89z" />
    <glyph glyph-name="uni07D5" unicode="&#x7d5;" horiz-adv-x="564" 
d="M88 0v714h89v-283h90q116 0 171 -58.5t55 -157.5q0 -53 -24 -102.5t-73.5 -81t-125.5 -31.5h-182zM266 353h-89v-275h96q49 0 77 20.5t40 52t12 64.5q0 65 -35 101.5t-101 36.5z" />
    <glyph glyph-name="uni07D6" unicode="&#x7d6;" horiz-adv-x="487" 
d="M289 0v124q0 86 -13.5 154t-42.5 126.5t-77 114t-117 117.5v78h398v-78h-291q116 -102 174 -229t58 -283v-124h-89z" />
    <glyph glyph-name="uni07D7" unicode="&#x7d7;" horiz-adv-x="377" 
d="M200 0v496q0 30 0.5 56.5t1.5 52.5q-6 -15 -17.5 -39t-21.5 -41l-58 -103l-70 38l144 254h110v-714h-89z" />
    <glyph glyph-name="uni07D8" unicode="&#x7d8;" horiz-adv-x="792" 
d="M88 0v239q0 115 42 170.5t117 55.5q41 0 72 -16.5t45 -42.5q16 50 56 82t100 32q86 0 135 -54.5t49 -168.5v-297h-616zM420 78h195v230q0 63 -22.5 98.5t-73.5 35.5t-75 -38.5t-24 -102.5v-223zM177 78h154v174q0 62 -16.5 98.5t-60.5 36.5q-32 0 -48.5 -18.5
t-22.5 -50.5t-6 -73v-167z" />
    <glyph glyph-name="uni07D9" unicode="&#x7d9;" horiz-adv-x="391" 
d="M151 0v435h-112v78h112v201h89v-201h112v-78h-112v-435h-89z" />
    <glyph glyph-name="uni07DA" unicode="&#x7da;" horiz-adv-x="650" 
d="M151 0v435h-112v78h112v201h89v-201h170v201h89v-201h112v-78h-112v-435h-348zM410 78v357h-170v-357h170z" />
    <glyph glyph-name="uni07DB" unicode="&#x7db;" horiz-adv-x="708" 
d="M88 0v361q0 152 161 152h371v-513h-532zM177 354v-276h354v357h-289q-37 0 -51 -21.5t-14 -59.5z" />
    <glyph glyph-name="uni07DC" unicode="&#x7dc;" horiz-adv-x="576" 
d="M244 0l-205 670v44h498v-44l-204 -670h-89zM255 259q13 -45 21 -72.5t14 -63.5q7 35 13.5 65t18.5 69l114 379h-294z" />
    <glyph glyph-name="uni07DD" unicode="&#x7dd;" horiz-adv-x="733" 
d="M88 0v303q0 152 161 152h112v82q0 82 43 129.5t123 47.5q49 0 84 -22t54 -59t19 -83q0 -74 -48 -123.5t-149 -49.5h-37v-225q0 -152 -161 -152h-201zM522 636q-72 0 -72 -91v-90h40q42 0 64.5 13.5t31.5 35.5t9 48q0 39 -19.5 61.5t-53.5 22.5zM361 159v218h-119
q-37 0 -51 -21.5t-14 -59.5v-218h119q37 0 51 22t14 59z" />
    <glyph glyph-name="uni07DE" unicode="&#x7de;" horiz-adv-x="544" 
d="M78 286v357h89v-130h200v201h89v-714h-89v435h-200v-149h-89z" />
    <glyph glyph-name="uni07DF" unicode="&#x7df;" horiz-adv-x="578" 
d="M299 0v353h-41q-107 0 -159.5 52t-52.5 132q0 56 23 95.5t63 60.5t90 21q82 0 124 -50t42 -128v-105h151v-78h-151v-353h-89zM261 431h38v112q0 44 -19.5 68.5t-58.5 24.5q-38 0 -62 -25.5t-24 -69.5q0 -50 30 -80t96 -30z" />
    <glyph glyph-name="uni07E0" unicode="&#x7e0;" horiz-adv-x="521" 
d="M216 0v636h-166v78h421v-78h-166v-636h-89z" />
    <glyph glyph-name="uni07E1" unicode="&#x7e1;" horiz-adv-x="576" 
d="M39 0v44l204 670h89l205 -670v-44h-498zM254 457l-114 -379h294l-113 377q-13 45 -21 72.5t-14 63.5q-7 -35 -13.5 -65t-18.5 -69z" />
    <glyph glyph-name="uni07E2" unicode="&#x7e2;" horiz-adv-x="541" 
d="M235 0v203q-77 11 -112.5 55.5t-35.5 105.5q0 63 37 106t111 53v113h-186v78h275v-191q76 -10 112 -53.5t36 -106.5q0 -61 -36 -105.5t-112 -54.5v-203h-89zM281 278q49 0 75 22.5t26 62.5t-27 62.5t-76 22.5q-51 0 -76.5 -24t-25.5 -61t25.5 -61t78.5 -24z" />
    <glyph glyph-name="uni07E3" unicode="&#x7e3;" horiz-adv-x="544" 
d="M367 0v636h-135q-37 0 -51 -22t-14 -59v-150h-89v157q0 152 161 152h217v-714h-89z" />
    <glyph glyph-name="uni07E4" unicode="&#x7e4;" horiz-adv-x="544" 
d="M78 329v385h89v-155h289v-559h-89v481h-200v-152h-89z" />
    <glyph glyph-name="uni07E5" unicode="&#x7e5;" horiz-adv-x="525" 
d="M88 0v279q0 152 161 152h99v205h-250v78h339v-714h-349zM177 272v-194h171v275h-106q-37 0 -51 -21.5t-14 -59.5z" />
    <glyph glyph-name="uni07E6" unicode="&#x7e6;" horiz-adv-x="521" 
d="M216 0v203q-77 11 -112.5 55.5t-35.5 105.5q0 63 37 106t111 53v191h89v-191q76 -10 112 -53.5t36 -106.5q0 -61 -36 -105.5t-112 -54.5v-203h-89zM262 278q49 0 75 22.5t26 62.5t-26.5 62.5t-76.5 22.5q-51 0 -76.5 -24t-25.5 -61t25.5 -61t78.5 -24z" />
    <glyph glyph-name="uni07E7" unicode="&#x7e7;" horiz-adv-x="529" 
d="M220 0v203q-77 11 -112.5 55.5t-35.5 105.5q0 63 37 106t111 53v113h-171v78h431v-78h-171v-113q76 -10 112 -53.5t36 -106.5q0 -61 -36 -105.5t-112 -54.5v-203h-89zM266 278q49 0 75 22.5t26 62.5t-26.5 62.5t-76.5 22.5q-51 0 -76.5 -24t-25.5 -61t25.5 -61t78.5 -24z
" />
    <glyph glyph-name="uni07E8" unicode="&#x7e8;" horiz-adv-x="453" 
d="M49 0v78h187q26 54 51.5 107.5t42.5 94.5h92q-26 -66 -60.5 -134t-78.5 -159q-7 -15 -24 -46t-37 -67t-35 -66q9 -3 23 -3q37 0 68.5 24t54.5 59t33 68h66q-27 -115 -91.5 -171.5t-151.5 -56.5q-50 0 -76.5 19t-26.5 41q0 6 12 29.5t29.5 55.5t36 65.5t32.5 60.5l1 1
h-148z" />
    <glyph glyph-name="uni07E9" unicode="&#x7e9;" horiz-adv-x="453" 
d="M49 0v78h188q22 45 41.5 86t33 71.5t18.5 44.5h92q-26 -66 -63.5 -142t-76.5 -152h18q25 0 51.5 -7.5t45 -27t18.5 -54.5q0 -27 -16.5 -56.5t-46.5 -55t-70 -41.5t-87 -16q-49 0 -79 17t-30 43q0 9 16 39t41 74.5t53 97.5l1 1h-148zM210 -195q26 0 53 11.5t45 30.5t18 41
q0 20 -14 25.5t-39 5.5h-26q-14 -28 -29.5 -55.5t-30.5 -55.5q5 -2 11.5 -2.5t11.5 -0.5z" />
    <glyph glyph-name="uni07EA" unicode="&#x7ea;" horiz-adv-x="391" 
d="M39 0v78h112v246h89v-246h112v-78h-112v-272h-89v272h-112z" />
    <glyph glyph-name="uni07EB" unicode="&#x7eb;" 
d="M-191 812v71h382v-71h-382z" />
    <glyph glyph-name="uni07EC" unicode="&#x7ec;" 
d="M-176 800l-51 50q27 25 50.5 49.5t48 41t53.5 16.5q23 0 37 -6t33 -22l51 -41q7 -5 13.5 -9.5t17.5 -4.5q13 0 34 19t65 65l51 -50q-27 -25 -50.5 -49.5t-47.5 -41t-53 -16.5q-22 0 -36 6t-34 22l-51 41q-7 5 -13.5 9.5t-18.5 4.5q-13 0 -34 -19t-65 -65z" />
    <glyph glyph-name="uni07ED" unicode="&#x7ed;" 
d="M0 804q-23 0 -39.5 14t-16.5 46t16.5 46t39.5 14q22 0 39 -14t17 -46t-17 -46t-39 -14z" />
    <glyph glyph-name="uni07EE" unicode="&#x7ee;" 
d="M-169 800v11q21 31 44 71.5t44 82t35 74.5h90q12 -33 34.5 -74.5t47 -82t43.5 -71.5v-11h-62q-25 23 -52.5 61.5t-56.5 84.5q-26 -46 -53.5 -83.5t-53.5 -62.5h-60z" />
    <glyph glyph-name="uni07EF" unicode="&#x7ef;" 
d="M-191 806v71h310q-13 13 -29 32t-28 34l-57 71l53 45l157 -195l-24 -58h-382z" />
    <glyph glyph-name="uni07F0" unicode="&#x7f0;" 
d="M176 800q-44 46 -65 65t-34 19q-12 0 -18.5 -4.5t-13.5 -9.5l-51 -41q-20 -16 -34 -22t-36 -6q-30 0 -54.5 17t-48 41.5t-48.5 48.5l51 50q44 -46 65 -65t34 -19q11 0 17.5 4.5t13.5 9.5l51 41q19 16 33 22t37 6q30 0 55 -17t48.5 -41.5t48.5 -48.5z" />
    <glyph glyph-name="uni07F1" unicode="&#x7f1;" 
d="M-191 806l-24 58l157 195l53 -45l-57 -71q-12 -15 -28 -34t-29 -32h310v-71h-382z" />
    <glyph glyph-name="uni07F2" unicode="&#x7f2;" 
d="M0 -184q-23 0 -39.5 14t-16.5 46t16.5 46t39.5 14q22 0 39 -14t17 -46t-17 -46t-39 -14z" />
    <glyph glyph-name="uni07F3" unicode="&#x7f3;" 
d="M124 804q-23 0 -39.5 14t-16.5 46t16.5 46t39.5 14q22 0 39 -14t17 -46t-17 -46t-39 -14zM-123 804q-23 0 -39.5 14t-16.5 46t16.5 46t39.5 14t39.5 -14t16.5 -46t-16.5 -46t-39.5 -14z" />
    <glyph glyph-name="uni07F4" unicode="&#x7f4;" horiz-adv-x="338" 
d="M82 366q10 46 19.5 100t17.5 107t13 96h94l7 -11q-9 -44 -23 -94.5t-30.5 -102t-32.5 -95.5h-65z" />
    <glyph glyph-name="uni07F5" unicode="&#x7f5;" horiz-adv-x="338" 
d="M89 366l-7 11q9 43 23 94t30.5 102t32.5 96h65q-9 -47 -19 -100.5t-18 -106t-13 -96.5h-94z" />
    <glyph glyph-name="uni07F6" unicode="&#x7f6;" horiz-adv-x="554" 
d="M39 0v44q96 75 180.5 157.5t136.5 168.5q-9 -3 -23.5 -5.5t-27.5 -2.5q-94 0 -151 45t-57 131q0 51 25.5 90.5t72.5 62.5t112 23q101 0 149 -51t48 -132q0 -70 -29 -132.5t-73 -118.5q-45 -58 -96.5 -106.5t-105.5 -95.5h304v-78h-465zM303 438q61 0 86 31t25 73
q0 40 -29 67t-85 27t-84.5 -29t-28.5 -69t27.5 -70t88.5 -30z" />
    <glyph glyph-name="uni07F7" unicode="&#x7f7;" horiz-adv-x="950" 
d="M284 -42q-63 0 -116.5 23t-85.5 73t-32 129q0 67 30.5 115.5t82 75t115.5 26.5q-15 16 -28.5 46t-13.5 79q0 71 34.5 117.5t88 69.5t111.5 23q115 0 177.5 -57.5t62.5 -158.5q0 -38 -12 -69t-28 -50q58 0 111 -22.5t86 -70.5t33 -124q0 -101 -60.5 -163t-170.5 -62
q-66 0 -116 20t-80 63q-31 -43 -81 -63t-108 -20zM285 32q40 0 74.5 15t55.5 49t21 89h78q0 -55 20 -89t53.5 -49t73.5 -15q41 0 75.5 15.5t55 48.5t20.5 86q0 54 -20.5 86t-55 46.5t-75.5 14.5q-38 0 -65 -10l-45 63q38 22 54.5 55t16.5 77q0 54 -20.5 86t-55 46.5
t-75.5 14.5t-74.5 -14.5t-53 -46.5t-19.5 -86q0 -45 18.5 -79.5t56.5 -56.5l-43 -62q-20 9 -38.5 11t-32.5 2q-41 0 -74.5 -14.5t-53 -46.5t-19.5 -86q0 -80 43 -115t104 -35zM472 445q-26 0 -43.5 16t-17.5 52q0 37 17.5 52t43.5 15t44.5 -15t18.5 -52q0 -36 -18.5 -52
t-44.5 -16zM286 113q-26 0 -43.5 16t-17.5 52q0 37 17.5 52t43.5 15t44.5 -15t18.5 -52q0 -36 -18.5 -52t-44.5 -16zM662 113q-26 0 -43.5 16t-17.5 52q0 37 17.5 52t43.5 15t44.5 -15t18.5 -52q0 -36 -18.5 -52t-44.5 -16z" />
    <glyph glyph-name="uni07F8" unicode="&#x7f8;" horiz-adv-x="481" 
d="M239 359q-25 0 -43 16t-18 52q0 37 18 52t43 15t44 -15t19 -52q0 -36 -19 -52t-44 -16zM50 0v78h381v-78h-381z" />
    <glyph glyph-name="uni07F9" unicode="&#x7f9;" horiz-adv-x="481" 
d="M50 520v78h381v-78h-381zM239 238q-25 0 -43 16t-18 52q0 37 18 52t43 15t44 -15t19 -52q0 -36 -19 -52t-44 -16zM239 -10q-25 0 -43 16t-18 52q0 37 18 52t43 15t44 -15t19 -52q0 -36 -19 -52t-44 -16z" />
    <glyph glyph-name="uni07FA" unicode="&#x7fa;" horiz-adv-x="417" 
d="M-34 0v78h485v-78h-485z" />
    <glyph glyph-name="uni07CA.fina" horiz-adv-x="265" 
d="M88 0v714h89v-636h122v-78h-211z" />
    <glyph glyph-name="uni07CA.medi" horiz-adv-x="265" 
d="M15 0q-9 0 -25 5t-24 11v62h122v636h89v-579q25 -57 103 -57h19v-78h-34q-38 0 -59 14t-42 42q-15 -29 -44 -42.5t-65 -13.5h-40z" />
    <glyph glyph-name="uni07CA.init" horiz-adv-x="265" 
d="M15 0q-9 0 -25 5t-24 11v62h122v636h89v-597q0 -61 -35 -89t-87 -28h-40z" />
    <glyph glyph-name="uni07CB.fina" horiz-adv-x="660" 
d="M329 0q-77 0 -135.5 32.5t-91.5 93t-33 142.5q0 78 35.5 138t95 94t132.5 34q80 0 138 -34.5t89.5 -93t31.5 -131.5q0 -50 -13.5 -93t-37.5 -78q29 -26 81 -26h73v-78h-69q-47 0 -72 15.5t-52 46.5q-34 -30 -77.5 -46t-94.5 -16zM331 78q53 0 90.5 25.5t58 69t20.5 96.5
q0 83 -44.5 135.5t-125.5 52.5q-50 0 -88 -24.5t-60 -68t-22 -101.5q0 -45 17.5 -87.5t55 -70t98.5 -27.5z" />
    <glyph glyph-name="uni07CB.medi" horiz-adv-x="660" 
d="M15 0q-9 0 -25 5t-24 11v62h170q-32 35 -49.5 83t-17.5 107q0 78 35.5 138t95 94t132.5 34q80 0 138 -34.5t89.5 -93t31.5 -131.5q0 -50 -13.5 -93t-37.5 -78q29 -26 81 -26h73v-78h-69q-47 0 -72 15.5t-52 46.5q-34 -30 -77.5 -46t-94.5 -16h-314zM331 78
q53 0 90.5 25.5t58 69t20.5 96.5q0 83 -44.5 135.5t-125.5 52.5q-50 0 -88 -24.5t-60 -68t-22 -101.5q0 -45 17.5 -87.5t55 -70t98.5 -27.5z" />
    <glyph glyph-name="uni07CB.init" horiz-adv-x="660" 
d="M15 0q-9 0 -25 5t-24 11v62h170q-32 35 -49.5 83t-17.5 107q0 78 35.5 138t95 94t132.5 34q80 0 138 -34.5t89.5 -93t31.5 -131.5q0 -81 -34 -143t-93 -97t-135 -35h-314zM331 78q53 0 90.5 25.5t58 69t20.5 96.5q0 83 -44.5 135.5t-125.5 52.5q-50 0 -88 -24.5t-60 -68
t-22 -101.5q0 -45 17.5 -87.5t55 -70t98.5 -27.5z" />
    <glyph glyph-name="uni07CC.fina" horiz-adv-x="437" 
d="M174 0v350l-170 364h88l86 -187q10 -22 21 -47.5t19 -48.5q8 23 18.5 47.5t20.5 45.5l88 190h88l-170 -364v-272h208v-78h-297z" />
    <glyph glyph-name="uni07CC.medi" horiz-adv-x="437" 
d="M15 0q-9 0 -25 5t-24 11v62h208v272l-170 364h88l86 -187q10 -22 21 -47.5t19 -48.5q8 23 18.5 47.5t20.5 45.5l88 190h88l-170 -364v-215q25 -57 103 -57h105v-78h-101q-45 0 -69.5 14.5t-50.5 42.5q-15 -29 -43.5 -43t-65.5 -14h-126z" />
    <glyph glyph-name="uni07CC.init" horiz-adv-x="437" 
d="M15 0q-9 0 -25 5t-24 11v62h208v272l-170 364h88l86 -187q10 -22 21 -47.5t19 -48.5q8 23 18.5 47.5t20.5 45.5l88 190h88l-170 -364v-233q0 -61 -35 -89t-87 -28h-126z" />
    <glyph glyph-name="uni07CD.fina" horiz-adv-x="619" 
d="M31 0l234 513h89l198 -435h101v-78h-161l-122 269q-17 38 -32 75.5t-29 78.5q-29 -83 -64 -160l-118 -263h-96z" />
    <glyph glyph-name="uni07CD.medi" horiz-adv-x="619" 
d="M15 0q-9 0 -25 5t-24 11v62h101l198 435h89l198 -435h101v-78h-161l-122 269q-17 38 -32 75.5t-29 78.5q-29 -83 -64 -160l-118 -263h-112z" />
    <glyph glyph-name="uni07CD.init" horiz-adv-x="619" 
d="M15 0q-9 0 -25 5t-24 11v62h101l198 435h89l234 -513h-96l-122 269q-17 38 -32 75.5t-29 78.5q-29 -83 -64 -160l-118 -263h-112z" />
    <glyph glyph-name="uni07CE.fina" horiz-adv-x="592" 
d="M88 0v513h89v-435h239v435h89v-380q26 -55 102 -55h19v-78h-34q-38 0 -59 14t-42 42q-15 -29 -44 -42.5t-65 -13.5h-294z" />
    <glyph glyph-name="uni07CE.medi" horiz-adv-x="592" 
d="M15 0q-9 0 -25 5t-24 11v62h122v435h89v-378q25 -57 103 -57h136v435h89v-380q26 -55 102 -55h19v-78h-34q-38 0 -59 14t-42 42q-15 -29 -44 -42.5t-65 -13.5h-117q-38 0 -59 14t-42 42q-15 -29 -44 -42.5t-65 -13.5h-40z" />
    <glyph glyph-name="uni07CE.init" horiz-adv-x="592" 
d="M15 0q-9 0 -25 5t-24 11v62h122v435h89v-378q25 -57 103 -57h136v435h89v-396q0 -61 -35 -89t-87 -28h-118q-38 0 -59 14t-42 42q-15 -29 -44 -42.5t-65 -13.5h-40z" />
    <glyph glyph-name="uni07CF.fina" horiz-adv-x="551" 
d="M49 0v78h325v357h-325v78h414v-378q25 -57 103 -57h19v-78h-34q-38 0 -59 14t-42 42q-15 -29 -44 -42.5t-65 -13.5h-292z" />
    <glyph glyph-name="uni07CF.medi" horiz-adv-x="551" 
d="M15 0q-9 0 -25 5t-24 11v62h408v357h-325v78h414v-378q25 -57 103 -57h19v-78h-34q-38 0 -59 14t-42 42q-15 -29 -44 -42.5t-65 -13.5h-326z" />
    <glyph glyph-name="uni07CF.init" horiz-adv-x="551" 
d="M15 0q-9 0 -25 5t-24 11v62h408v357h-325v78h414v-397v0q0 -60 -35 -88t-87 -28h-326z" />
    <glyph glyph-name="uni07D0.fina" horiz-adv-x="645" 
d="M278 0v305q-110 11 -163 67t-53 135q0 58 28.5 105t87 74.5t146.5 27.5q89 0 146.5 -27.5t85 -74.5t27.5 -105q0 -78 -53.5 -135t-162.5 -67v-227h312v-78h-401zM327 381q77 0 122 35.5t45 90.5q0 59 -46 94t-125 35t-125.5 -35t-46.5 -93q0 -34 17.5 -62.5t56.5 -46.5
t102 -18z" />
    <glyph glyph-name="uni07D0.medi" horiz-adv-x="645" 
d="M15 0q-9 0 -25 5t-24 11v62h312v227q-110 11 -163 67t-53 135q0 58 28.5 105t87 74.5t146.5 27.5q89 0 146.5 -27.5t85 -74.5t27.5 -105q0 -78 -53.5 -135t-162.5 -67v-172q26 -55 102 -55h210v-78h-206q-45 0 -69.5 14t-49.5 42q-15 -29 -44 -42.5t-65 -13.5h-230z
M327 381q77 0 122 35.5t45 90.5q0 59 -46 94t-125 35t-125.5 -35t-46.5 -93q0 -34 17.5 -62.5t56.5 -46.5t102 -18z" />
    <glyph glyph-name="uni07D0.init" horiz-adv-x="645" 
d="M15 0q-9 0 -25 5t-24 11v62h312v227q-110 11 -163 67t-53 135q0 58 28.5 105t87 74.5t146.5 27.5q89 0 146.5 -27.5t85 -74.5t27.5 -105q0 -78 -53.5 -135t-162.5 -67v-188q0 -61 -35 -89t-87 -28h-230zM327 381q77 0 122 35.5t45 90.5q0 59 -46 94t-125 35t-125.5 -35
t-46.5 -93q0 -34 17.5 -62.5t56.5 -46.5t102 -18z" />
    <glyph glyph-name="uni07D1.fina" horiz-adv-x="522" 
d="M210 366l-7 11q9 43 23 94t30.5 102t32.5 96h65q-10 -47 -19.5 -100.5t-17.5 -106t-13 -96.5h-94zM50 0v78h504v-78h-504z" />
    <glyph glyph-name="uni07D1.medi" horiz-adv-x="522" 
d="M210 366l-7 11q9 43 23 94t30.5 102t32.5 96h65q-10 -47 -19.5 -100.5t-17.5 -106t-13 -96.5h-94zM15 0q-9 0 -25 5t-24 11v62h588v-78h-539z" />
    <glyph glyph-name="uni07D1.init" horiz-adv-x="522" 
d="M210 366l-7 11q9 43 23 94t30.5 102t32.5 96h65q-10 -47 -19.5 -100.5t-17.5 -106t-13 -96.5h-94zM15 0q-9 0 -25 5t-24 11v62h505v-78h-456z" />
    <glyph glyph-name="uni07D2.fina" horiz-adv-x="685" 
d="M299 244v133h-64q-85 0 -137 43.5t-52 129.5q0 46 20.5 83t59 59t94.5 22q80 0 124 -47.5t44 -131.5v-80h209v-377h122v-78h-211v377h-120v-133h-89zM241 455h58v89q0 35 -18 63.5t-64 28.5q-44 0 -63 -27t-19 -61q0 -43 27 -68t79 -25z" />
    <glyph glyph-name="uni07D2.medi" horiz-adv-x="685" 
d="M15 0q-9 0 -25 5t-24 11v62h542v299h-120v-133h-89v133h-64q-85 0 -137 43.5t-52 129.5q0 46 20.5 83t59 59t94.5 22q80 0 124 -47.5t44 -131.5v-80h209v-320q25 -57 103 -57h19v-78h-34q-38 0 -59 14t-42 42q-15 -29 -44 -42.5t-65 -13.5h-460zM241 455h58v89
q0 35 -18 63.5t-64 28.5q-44 0 -63 -27t-19 -61q0 -43 27 -68t79 -25z" />
    <glyph glyph-name="uni07D2.init" horiz-adv-x="685" 
d="M15 0q-9 0 -25 5t-24 11v62h542v299h-120v-133h-89v133h-64q-85 0 -137 43.5t-52 129.5q0 46 20.5 83t59 59t94.5 22q80 0 124 -47.5t44 -131.5v-80h209v-338q0 -61 -35 -89t-87 -28h-460zM241 455h58v89q0 35 -18 63.5t-64 28.5q-44 0 -63 -27t-19 -61q0 -43 27 -68
t79 -25z" />
    <glyph glyph-name="uni07D3.fina" horiz-adv-x="419" 
d="M88 0v714h263v-78h-174v-206h174v-78h-174v-274h276v-78h-365z" />
    <glyph glyph-name="uni07D3.medi" horiz-adv-x="419" 
d="M15 0q-9 0 -25 5t-24 11v62h122v636h263v-78h-174v-206h174v-78h-174v-217q25 -57 103 -57h173v-78h-169q-45 0 -69.5 14.5t-50.5 42.5q-15 -29 -43.5 -43t-65.5 -14h-40z" />
    <glyph glyph-name="uni07D3.init" horiz-adv-x="419" 
d="M15 0q-9 0 -25 5t-24 11v62h122v636h263v-78h-174v-206h174v-78h-174v-235q0 -61 -35 -89t-87 -28h-40z" />
    <glyph glyph-name="uni07D4.fina" horiz-adv-x="419" 
d="M242 0v352h-174v78h174v206h-174v78h263v-636h122v-78h-211z" />
    <glyph glyph-name="uni07D4.medi" horiz-adv-x="419" 
d="M15 0q-9 0 -25 5t-24 11v62h276v274h-174v78h174v206h-174v78h263v-579q25 -57 103 -57h19v-78h-34q-38 0 -59 14t-42 42q-15 -29 -44 -42.5t-65 -13.5h-194z" />
    <glyph glyph-name="uni07D4.init" horiz-adv-x="419" 
d="M15 0q-9 0 -25 5t-24 11v62h276v274h-174v78h174v206h-174v78h263v-597q0 -61 -35 -89t-87 -28h-194z" />
    <glyph glyph-name="uni07D5.fina" horiz-adv-x="564" 
d="M88 0v714h89v-283h90q116 0 171 -58.5t55 -157.5q0 -61 -29 -111q29 -26 81 -26h53v-78h-68q-38 0 -59 14.5t-43 42.5q-28 -26 -67 -41.5t-91 -15.5h-182zM266 353h-89v-275h96q49 0 77 20.5t40 52t12 64.5q0 65 -35 101.5t-101 36.5z" />
    <glyph glyph-name="uni07D5.medi" horiz-adv-x="564" 
d="M15 0q-9 0 -25 5t-24 11v62h122v636h89v-283h90q116 0 171 -58.5t55 -157.5q0 -61 -29 -111q29 -26 81 -26h53v-78h-49q-45 0 -69.5 14.5t-50.5 43.5q-28 -26 -67.5 -42t-91.5 -16h-255zM266 353h-89v-275h96q49 0 77 20.5t40 52t12 64.5q0 65 -35 101.5t-101 36.5z" />
    <glyph glyph-name="uni07D5.init" horiz-adv-x="564" 
d="M15 0q-9 0 -25 5t-24 11v62h122v636h89v-283h90q116 0 171 -58.5t55 -157.5q0 -53 -24 -102.5t-73.5 -81t-125.5 -31.5h-255zM266 353h-89v-275h96q49 0 77 20.5t40 52t12 64.5q0 65 -35 101.5t-101 36.5z" />
    <glyph glyph-name="uni07D6.fina" horiz-adv-x="487" 
d="M289 0v124q0 86 -13.5 154t-42.5 126.5t-77 114t-117 117.5v78h398v-78h-291q116 -102 174 -229t58 -283v-46h143v-78h-232z" />
    <glyph glyph-name="uni07D6.medi" horiz-adv-x="487" 
d="M15 0q-9 0 -25 5t-24 11v62h323v46q0 86 -13.5 154t-42.5 126.5t-77 114t-117 117.5v78h398v-78h-291q113 -100 171.5 -224.5t60.5 -276.5v0q26 -57 103 -57h40v-78h-55q-38 0 -59 14t-42 42q-15 -29 -44 -42.5t-65 -13.5h-241z" />
    <glyph glyph-name="uni07D6.init" horiz-adv-x="487" 
d="M15 0q-9 0 -25 5t-24 11v62h323v46q0 86 -13.5 154t-42.5 126.5t-77 114t-117 117.5v78h398v-78h-291q116 -102 174 -229t58 -283v-7q0 -61 -35 -89t-87 -28h-241z" />
    <glyph glyph-name="uni07D7.fina" horiz-adv-x="377" 
d="M200 0v496q0 30 0.5 56.5t1.5 52.5q-6 -15 -17.5 -39t-21.5 -41l-58 -103l-70 38l144 254h110v-636h122v-78h-211z" />
    <glyph glyph-name="uni07D7.medi" horiz-adv-x="377" 
d="M15 0q-9 0 -25 5t-24 11v62h234v418q0 30 0.5 56.5t1.5 52.5q-6 -15 -17.5 -39t-21.5 -41l-58 -103l-70 38l144 254h110v-579q25 -57 103 -57h19v-78h-34q-38 0 -59 14t-42 42q-15 -29 -44 -42.5t-65 -13.5h-152z" />
    <glyph glyph-name="uni07D7.init" horiz-adv-x="377" 
d="M15 0q-9 0 -25 5t-24 11v62h234v418q0 30 0.5 56.5t1.5 52.5q-6 -15 -17.5 -39t-21.5 -41l-58 -103l-70 38l144 254h110v-597q0 -61 -35 -89t-87 -28h-152z" />
    <glyph glyph-name="uni07D8.fina" horiz-adv-x="792" 
d="M88 0v239q0 115 42 170.5t117 55.5q41 0 72 -16.5t45 -42.5q16 50 56 82t100 32q86 0 135 -54.5t49 -168.5v-162q26 -57 103 -57h40v-78h-55q-38 0 -59 14t-42 42q-15 -29 -44 -42.5t-65 -13.5h-494zM420 78h195v230q0 63 -22.5 98.5t-73.5 35.5t-75 -38.5t-24 -102.5
v-223zM177 78h154v174q0 62 -16.5 98.5t-60.5 36.5q-32 0 -48.5 -18.5t-22.5 -50.5t-6 -73v-167z" />
    <glyph glyph-name="uni07D8.medi" horiz-adv-x="792" 
d="M15 0q-9 0 -25 5t-24 11v62h122v161q0 115 42 170.5t117 55.5q41 0 72 -16.5t45 -42.5q16 50 56 82t100 32q86 0 135 -54.5t49 -168.5v-162q26 -57 103 -57h40v-78h-55q-38 0 -59 14t-42 42q-15 -29 -44 -42.5t-65 -13.5h-567zM420 78h195v230q0 63 -22.5 98.5
t-73.5 35.5t-75 -38.5t-24 -102.5v-223zM177 78h154v174q0 62 -16.5 98.5t-60.5 36.5q-32 0 -48.5 -18.5t-22.5 -50.5t-6 -73v-167z" />
    <glyph glyph-name="uni07D8.init" horiz-adv-x="792" 
d="M15 0q-9 0 -25 5t-24 11v62h122v161q0 115 42 170.5t117 55.5q41 0 72 -16.5t45 -42.5q16 50 56 82t100 32q86 0 135 -54.5t49 -168.5v-180q0 -61 -35 -89t-87 -28h-567zM420 78h195v230q0 63 -22.5 98.5t-73.5 35.5t-75 -38.5t-24 -102.5v-223zM177 78h154v174
q0 62 -16.5 98.5t-60.5 36.5q-32 0 -48.5 -18.5t-22.5 -50.5t-6 -73v-167z" />
    <glyph glyph-name="uni07D9.fina" horiz-adv-x="391" 
d="M151 0v435h-112v78h112v201h89v-201h112v-78h-112v-357h185v-78h-274z" />
    <glyph glyph-name="uni07D9.medi" horiz-adv-x="391" 
d="M15 0q-9 0 -25 5t-24 11v62h185v357h-112v78h112v201h89v-201h112v-78h-112v-300q26 -57 103 -57h82v-78h-97q-38 0 -59 14t-42 42q-15 -29 -44 -42.5t-65 -13.5h-103z" />
    <glyph glyph-name="uni07D9.init" horiz-adv-x="391" 
d="M15 0q-9 0 -25 5t-24 11v62h185v357h-112v78h112v201h89v-201h112v-78h-112v-318q0 -61 -35 -89t-87 -28h-103z" />
    <glyph glyph-name="uni07DA.fina" horiz-adv-x="650" 
d="M151 0v435h-112v78h112v201h89v-201h170v201h89v-201h112v-78h-112v-300q25 -57 103 -57h82v-78h-97q-38 0 -59 14t-42 42q-15 -29 -44 -42.5t-65 -13.5h-226zM410 78v357h-170v-357h170z" />
    <glyph glyph-name="uni07DA.medi" horiz-adv-x="650" 
d="M15 0q-9 0 -25 5t-24 11v62h185v357h-112v78h112v201h89v-201h170v201h89v-201h112v-78h-112v-300q25 -57 103 -57h82v-78h-97q-38 0 -59 14t-42 42q-15 -29 -44 -42.5t-65 -13.5h-49q-38 0 -59 14t-42 42q-15 -29 -44 -42.5t-65 -13.5h-103zM343 78h67v357h-170v-300
q26 -57 103 -57z" />
    <glyph glyph-name="uni07DA.init" horiz-adv-x="650" 
d="M15 0q-9 0 -25 5t-24 11v62h185v357h-112v78h112v201h89v-201h170v201h89v-201h112v-78h-112v-318q0 -61 -35 -89t-87 -28h-49q-38 0 -59 14t-42 42q-15 -29 -44 -42.5t-65 -13.5h-103zM343 78h67v357h-170v-300q26 -57 103 -57z" />
    <glyph glyph-name="uni07DB.fina" horiz-adv-x="708" 
d="M88 0v361q0 152 161 152h371v-378q26 -57 103 -57h19v-78h-34q-38 0 -59 14t-42 42q-15 -29 -44 -42.5t-65 -13.5h-410zM177 354v-276h354v357h-289q-37 0 -51 -21.5t-14 -59.5z" />
    <glyph glyph-name="uni07DB.medi" horiz-adv-x="708" 
d="M15 0q-9 0 -25 5t-24 11v62h122v283q0 152 161 152h371v-378q26 -57 103 -57h19v-78h-34q-38 0 -59 14t-42 42q-15 -29 -44 -42.5t-65 -13.5h-483zM177 354v-276h354v357h-289q-37 0 -51 -21.5t-14 -59.5z" />
    <glyph glyph-name="uni07DB.init" horiz-adv-x="708" 
d="M15 0q-9 0 -25 5t-24 11v62h122v283q0 152 161 152h371v-396q0 -61 -35 -89t-87 -28h-483zM177 354v-276h354v357h-289q-37 0 -51 -21.5t-14 -59.5z" />
    <glyph glyph-name="uni07DC.fina" horiz-adv-x="576" 
d="M244 0l-205 670v44h498v-44l-180 -592h253v-78h-366zM255 259q13 -45 21 -72.5t14 -63.5q7 35 13.5 65t18.5 69l114 379h-294z" />
    <glyph glyph-name="uni07DC.medi" horiz-adv-x="576" 
d="M15 0q-9 0 -25 5t-24 11v62h254l-181 592v44h498v-44l-166 -545q28 -47 98 -47h141v-78h-137q-47 0 -72 15.5t-50 44.5q-15 -31 -44 -45.5t-63 -14.5v0v0h-5h-224zM255 259q13 -45 21 -72.5t14 -63.5q7 35 13.5 65t18.5 69l114 379h-294z" />
    <glyph glyph-name="uni07DC.init" horiz-adv-x="576" 
d="M15 0q-9 0 -25 5t-24 11v62h254l-181 592v44h498v-44l-179 -590q-11 -42 -42.5 -61t-71.5 -19v0v0h-5h-224zM255 259q13 -45 21 -72.5t14 -63.5q7 35 13.5 65t18.5 69l114 379h-294z" />
    <glyph glyph-name="uni07DD.fina" horiz-adv-x="733" 
d="M88 0v303q0 152 161 152h112v82q0 82 43 129.5t123 47.5q49 0 84 -22t54 -59t19 -83q0 -74 -48 -123.5t-149 -49.5h-37v-225q0 -10 -1 -20q26 -54 102 -54h216v-78h-212q-47 0 -72 15.5t-53 47.5q-36 -63 -141 -63h-201zM522 636q-72 0 -72 -91v-90h40q42 0 64.5 13.5
t31.5 35.5t9 48q0 39 -19.5 61.5t-53.5 22.5zM361 159v218h-119q-37 0 -51 -21.5t-14 -59.5v-218h119q37 0 51 22t14 59z" />
    <glyph glyph-name="uni07DD.medi" horiz-adv-x="733" 
d="M15 0q-9 0 -25 5t-24 11v62h122v225q0 152 161 152h112v82q0 82 43 129.5t123 47.5q49 0 84 -22t54 -59t19 -83q0 -74 -48 -123.5t-149 -49.5h-37v-225q0 -10 -1 -20q26 -54 102 -54h216v-78h-212q-47 0 -72 15.5t-53 47.5q-36 -63 -141 -63h-274zM522 636q-72 0 -72 -91
v-90h40q42 0 64.5 13.5t31.5 35.5t9 48q0 39 -19.5 61.5t-53.5 22.5zM361 159v218h-119q-37 0 -51 -21.5t-14 -59.5v-218h119q37 0 51 22t14 59z" />
    <glyph glyph-name="uni07DD.init" horiz-adv-x="733" 
d="M15 0q-9 0 -25 5t-24 11v62h122v225q0 152 161 152h112v82q0 82 43 129.5t123 47.5q49 0 84 -22t54 -59t19 -83q0 -74 -48 -123.5t-149 -49.5h-37v-225q0 -152 -161 -152h-274zM522 636q-72 0 -72 -91v-90h40q42 0 64.5 13.5t31.5 35.5t9 48q0 39 -19.5 61.5t-53.5 22.5z
M361 159v218h-119q-37 0 -51 -21.5t-14 -59.5v-218h119q37 0 51 22t14 59z" />
    <glyph glyph-name="uni07DE.fina" horiz-adv-x="544" 
d="M78 286v357h89v-130h200v201h89v-636h122v-78h-211v435h-200v-149h-89z" />
    <glyph glyph-name="uni07DE.medi" horiz-adv-x="544" 
d="M15 0q-9 0 -25 5t-24 11v62h401v357h-200v-149h-89v357h89v-130h200v201h89v-579q26 -57 103 -57h19v-78h-34q-38 0 -59 14t-42 42q-15 -29 -44 -42.5t-65 -13.5h-319z" />
    <glyph glyph-name="uni07DE.init" horiz-adv-x="544" 
d="M15 0q-9 0 -25 5t-24 11v62h401v357h-200v-149h-89v357h89v-130h200v201h89v-597q0 -61 -35 -89t-87 -28h-319z" />
    <glyph glyph-name="uni07DF.fina" horiz-adv-x="578" 
d="M299 0v353h-41q-107 0 -159.5 52t-52.5 132q0 56 23 95.5t63 60.5t90 21q82 0 124 -50t42 -128v-105h151v-78h-151v-275h224v-78h-313zM261 431h38v112q0 44 -19.5 68.5t-58.5 24.5q-38 0 -62 -25.5t-24 -69.5q0 -50 30 -80t96 -30z" />
    <glyph glyph-name="uni07DF.medi" horiz-adv-x="578" 
d="M15 0q-9 0 -25 5t-24 11v62h333v275h-41q-107 0 -159.5 52t-52.5 132q0 56 23 95.5t63 60.5t90 21q82 0 124 -50t42 -128v-105h151v-78h-151v-218q26 -57 103 -57h121v-78h-117q-45 0 -69.5 14.5t-50.5 42.5q-15 -29 -43.5 -43t-65.5 -14h-251zM261 431h38v112
q0 44 -19.5 68.5t-58.5 24.5q-38 0 -62 -25.5t-24 -69.5q0 -50 30 -80t96 -30z" />
    <glyph glyph-name="uni07DF.init" horiz-adv-x="578" 
d="M15 0q-9 0 -25 5t-24 11v62h333v275h-41q-107 0 -159.5 52t-52.5 132q0 56 23 95.5t63 60.5t90 21q82 0 124 -50t42 -128v-105h151v-78h-151v-236q0 -61 -35 -89t-87 -28h-251zM261 431h38v112q0 44 -19.5 68.5t-58.5 24.5q-38 0 -62 -25.5t-24 -69.5q0 -50 30 -80
t96 -30z" />
    <glyph glyph-name="uni07E0.fina" horiz-adv-x="521" 
d="M216 0v636h-166v78h421v-78h-166v-558h250v-78h-339z" />
    <glyph glyph-name="uni07E0.medi" horiz-adv-x="521" 
d="M15 0q-9 0 -25 5t-24 11v62h250v558h-166v78h421v-78h-166v-501q25 -57 103 -57h147v-78h-143q-45 0 -69.5 14.5t-50.5 42.5q-15 -29 -43.5 -43t-65.5 -14h-168z" />
    <glyph glyph-name="uni07E0.init" horiz-adv-x="521" 
d="M15 0q-9 0 -25 5t-24 11v62h250v558h-166v78h421v-78h-166v-519q0 -61 -35 -89t-87 -28h-168z" />
    <glyph glyph-name="uni07E1.fina" horiz-adv-x="576" 
d="M39 0v44l204 670h89l195 -636h83v-78h-571zM254 457l-114 -379h294l-113 377q-13 45 -21 72.5t-14 63.5q-7 -35 -13.5 -65t-18.5 -69z" />
    <glyph glyph-name="uni07E1.medi" horiz-adv-x="576" 
d="M-34 0v78h83l194 636h89l195 -636h83v-78h-644zM254 457l-114 -379h294l-113 377q-13 45 -21 72.5t-14 63.5q-7 -35 -13.5 -65t-18.5 -69z" />
    <glyph glyph-name="uni07E1.init" horiz-adv-x="576" 
d="M15 0q-9 0 -25 5t-24 11v62h83l194 636h89l205 -670v-44h-522zM254 457l-114 -379h294l-113 377q-13 45 -21 72.5t-14 63.5q-7 -35 -13.5 -65t-18.5 -69z" />
    <glyph glyph-name="uni07E2.fina" horiz-adv-x="541" 
d="M235 0v203q-77 11 -112.5 55.5t-35.5 105.5q0 63 37 106t111 53v113h-186v78h275v-191q76 -10 112 -53.5t36 -106.5q0 -61 -36 -105.5t-112 -54.5v-125h251v-78h-340zM281 278q49 0 75 22.5t26 62.5t-27 62.5t-76 22.5q-51 0 -76.5 -24t-25.5 -61t25.5 -61t78.5 -24z" />
    <glyph glyph-name="uni07E2.medi" horiz-adv-x="541" 
d="M15 0q-9 0 -25 5t-24 11v62h269v125q-77 11 -112.5 55.5t-35.5 105.5q0 63 37 106t111 53v113h-186v78h275v-191q76 -10 112 -53.5t36 -106.5q0 -61 -36 -105.5t-112 -54.5v-68q26 -57 103 -57h148v-78h-144q-45 0 -69.5 14.5t-50.5 42.5q-15 -29 -43.5 -43t-65.5 -14
h-187zM281 278q49 0 75 22.5t26 62.5t-27 62.5t-76 22.5q-51 0 -76.5 -24t-25.5 -61t25.5 -61t78.5 -24z" />
    <glyph glyph-name="uni07E2.init" horiz-adv-x="541" 
d="M15 0q-9 0 -25 5t-24 11v62h269v125q-77 11 -112.5 55.5t-35.5 105.5q0 63 37 106t111 53v113h-186v78h275v-191q76 -10 112 -53.5t36 -106.5q0 -61 -36 -105.5t-112 -54.5v-86q0 -61 -35 -89t-87 -28h-187zM281 278q49 0 75 22.5t26 62.5t-27 62.5t-76 22.5
q-51 0 -76.5 -24t-25.5 -61t25.5 -61t78.5 -24z" />
    <glyph glyph-name="uni07E3.fina" horiz-adv-x="544" 
d="M367 0v636h-135q-37 0 -51 -22t-14 -59v-150h-89v157q0 152 161 152h217v-636h122v-78h-211z" />
    <glyph glyph-name="uni07E3.medi" horiz-adv-x="544" 
d="M15 0q-9 0 -25 5t-24 11v62h401v558h-135q-37 0 -51 -22t-14 -59v-150h-89v157q0 152 161 152h217v-579q26 -57 103 -57h19v-78h-34q-38 0 -59 14t-42 42q-15 -29 -44 -42.5t-65 -13.5h-319z" />
    <glyph glyph-name="uni07E3.init" horiz-adv-x="544" 
d="M15 0q-9 0 -25 5t-24 11v62h401v558h-135q-37 0 -51 -22t-14 -59v-150h-89v157q0 152 161 152h217v-597q0 -61 -35 -89t-87 -28h-319z" />
    <glyph glyph-name="uni07E4.fina" horiz-adv-x="544" 
d="M78 329v385h89v-155h289v-481h122v-78h-211v481h-200v-152h-89z" />
    <glyph glyph-name="uni07E4.medi" horiz-adv-x="544" 
d="M15 0q-9 0 -25 5t-24 11v62h401v403h-200v-152h-89v385h89v-155h289v-424q26 -57 103 -57h19v-78h-34q-38 0 -59 14t-42 42q-15 -29 -44 -42.5t-65 -13.5h-319z" />
    <glyph glyph-name="uni07E4.init" horiz-adv-x="544" 
d="M15 0q-9 0 -25 5t-24 11v62h401v403h-200v-152h-89v385h89v-155h289v-442q0 -61 -35 -89t-87 -28h-319z" />
    <glyph glyph-name="uni07E5.fina" horiz-adv-x="525" 
d="M88 0v279q0 152 161 152h99v205h-250v78h339v-579q25 -57 103 -57h19v-78h-34q-38 0 -59 14t-42 42q-15 -29 -44 -42.5t-65 -13.5h-227zM177 272v-194h171v275h-106q-37 0 -51 -21.5t-14 -59.5z" />
    <glyph glyph-name="uni07E5.medi" horiz-adv-x="525" 
d="M15 0q-9 0 -25 5t-24 11v62h122v201q0 152 161 152h99v205h-250v78h339v-579q25 -57 103 -57h19v-78h-34q-38 0 -59 14t-42 42q-15 -29 -44 -42.5t-65 -13.5h-300zM177 272v-194h171v275h-106q-37 0 -51 -21.5t-14 -59.5z" />
    <glyph glyph-name="uni07E5.init" horiz-adv-x="525" 
d="M15 0q-9 0 -25 5t-24 11v62h122v201q0 152 161 152h99v205h-250v78h339v-597q0 -61 -35 -89t-87 -28h-300zM177 272v-194h171v275h-106q-37 0 -51 -21.5t-14 -59.5z" />
    <glyph glyph-name="uni07E6.fina" horiz-adv-x="521" 
d="M216 0v203q-77 11 -112.5 55.5t-35.5 105.5q0 63 37 106t111 53v191h89v-191q76 -10 112 -53.5t36 -106.5q0 -61 -36 -105.5t-112 -54.5v-125h250v-78h-339zM262 278q49 0 75 22.5t26 62.5t-26.5 62.5t-76.5 22.5q-51 0 -76.5 -24t-25.5 -61t25.5 -61t78.5 -24z" />
    <glyph glyph-name="uni07E6.medi" horiz-adv-x="521" 
d="M15 0q-9 0 -25 5t-24 11v62h250v125q-77 11 -112.5 55.5t-35.5 105.5q0 63 37 106t111 53v191h89v-191q76 -10 112 -53.5t36 -106.5q0 -61 -36 -105.5t-112 -54.5v-68q25 -57 103 -57h147v-78h-143q-45 0 -69.5 14.5t-50.5 42.5q-15 -29 -43.5 -43t-65.5 -14h-168z
M262 278q49 0 75 22.5t26 62.5t-26.5 62.5t-76.5 22.5q-51 0 -76.5 -24t-25.5 -61t25.5 -61t78.5 -24z" />
    <glyph glyph-name="uni07E6.init" horiz-adv-x="521" 
d="M15 0q-9 0 -25 5t-24 11v62h250v125q-77 11 -112.5 55.5t-35.5 105.5q0 63 37 106t111 53v191h89v-191q76 -10 112 -53.5t36 -106.5q0 -61 -36 -105.5t-112 -54.5v-86q0 -61 -35 -89t-87 -28h-168zM262 278q49 0 75 22.5t26 62.5t-26.5 62.5t-76.5 22.5q-51 0 -76.5 -24
t-25.5 -61t25.5 -61t78.5 -24z" />
    <glyph glyph-name="uni07E7.fina" horiz-adv-x="529" 
d="M220 0v203q-77 11 -112.5 55.5t-35.5 105.5q0 63 37 106t111 53v113h-171v78h431v-78h-171v-113q76 -10 112 -53.5t36 -106.5q0 -61 -36 -105.5t-112 -54.5v-125h254v-78h-343zM266 278q49 0 75 22.5t26 62.5t-26.5 62.5t-76.5 22.5q-51 0 -76.5 -24t-25.5 -61t25.5 -61
t78.5 -24z" />
    <glyph glyph-name="uni07E7.medi" horiz-adv-x="529" 
d="M15 0q-9 0 -25 5t-24 11v62h254v125q-77 11 -112.5 55.5t-35.5 105.5q0 63 37 106t111 53v113h-171v78h431v-78h-171v-113q76 -10 112 -53.5t36 -106.5q0 -61 -36 -105.5t-112 -54.5v-68q25 -57 103 -57h151v-78h-147q-45 0 -69.5 14.5t-50.5 42.5q-15 -29 -43.5 -43
t-65.5 -14h-172zM266 278q49 0 75 22.5t26 62.5t-26.5 62.5t-76.5 22.5q-51 0 -76.5 -24t-25.5 -61t25.5 -61t78.5 -24z" />
    <glyph glyph-name="uni07E7.init" horiz-adv-x="529" 
d="M15 0q-9 0 -25 5t-24 11v62h254v125q-77 11 -112.5 55.5t-35.5 105.5q0 63 37 106t111 53v113h-171v78h431v-78h-171v-113q76 -10 112 -53.5t36 -106.5q0 -61 -36 -105.5t-112 -54.5v-86q0 -61 -35 -89t-87 -28h-172zM266 278q49 0 75 22.5t26 62.5t-26.5 62.5
t-76.5 22.5q-51 0 -76.5 -24t-25.5 -61t25.5 -61t78.5 -24z" />
    <glyph glyph-name="uni07E8.fina" horiz-adv-x="453" 
d="M189 -272q-50 0 -76.5 19t-26.5 41q0 6 12 29.5t29.5 55.5t36 65.5t32.5 60.5q24 46 48.5 96.5t47 98.5t38.5 86h92q-16 -41 -35 -81t-42 -86q29 -35 90 -35h52v-78h-48q-46 0 -70.5 14.5t-50.5 43.5l-17 -34t-18 -37q-7 -15 -24 -46t-37 -67t-35 -66q9 -3 23 -3
q37 0 68.5 24t54.5 59t33 68h66q-27 -115 -91.5 -171.5t-151.5 -56.5z" />
    <glyph glyph-name="uni07E8.medi" horiz-adv-x="453" 
d="M15 0q-9 0 -25 5t-24 11v62h270q26 54 51.5 107.5t42.5 94.5h92q-16 -41 -35 -81t-42 -86q29 -35 90 -35h52v-78h-48q-46 0 -70.5 14.5t-50.5 43.5l-17 -34t-18 -37q-7 -15 -24 -46t-37 -67t-35 -66q9 -3 23 -3t35 6.5t44 25.5t45 53t32 66h66q-27 -115 -91.5 -171.5
t-151.5 -56.5q-50 0 -76.5 19t-26.5 41q0 6 12 29.5t29.5 55.5t36 65.5t32.5 60.5l1 1h-182z" />
    <glyph glyph-name="uni07E8.init" horiz-adv-x="453" 
d="M15 0q-9 0 -25 5t-24 11v62h270q26 54 51.5 107.5t42.5 94.5h92q-26 -66 -60.5 -134t-78.5 -159q-7 -15 -24 -46t-37 -67t-35 -66q9 -3 23 -3t35 6.5t44 25.5t45 53t32 66h66q-27 -115 -91.5 -171.5t-151.5 -56.5q-50 0 -76.5 19t-26.5 41q0 6 12 29.5t29.5 55.5t36 65.5
t32.5 60.5l1 1h-182z" />
    <glyph glyph-name="uni07E9.fina" horiz-adv-x="453" 
d="M195 -272q-49 0 -79 17t-30 43q0 9 16 39t41 74.5t53 97.5q30 57 58.5 115t49 103t26.5 63h92q-15 -39 -34.5 -81t-41.5 -86q29 -35 89 -35h52v-78h-48q-45 0 -70 14.5t-50 43.5q-10 -18 -19 -36l-18 -36h18q25 0 51.5 -7.5t45 -27t18.5 -54.5q0 -27 -16.5 -56.5
t-46.5 -55t-70 -41.5t-87 -16zM210 -195q26 0 53 12t45 30.5t18 40.5q0 20 -14 25.5t-39 5.5h-26q-14 -28 -29.5 -55.5t-30.5 -55.5q5 -2 11.5 -2.5t11.5 -0.5z" />
    <glyph glyph-name="uni07E9.medi" horiz-adv-x="453" 
d="M15 0q-9 0 -25 5t-24 11v62h271q22 45 41.5 86t33 71.5t18.5 44.5h92q-15 -39 -34.5 -81t-41.5 -86q29 -35 89 -35h52v-78h-48q-45 0 -70 14.5t-50 43.5q-10 -18 -19 -36l-18 -36h18q25 0 51.5 -7.5t45 -27t18.5 -54.5q0 -27 -16.5 -56.5t-46.5 -55t-70 -41.5t-87 -16
q-49 0 -79 17t-30 43q0 9 16 39t41 74.5t53 97.5l1 1h-182zM210 -195q26 0 53 12t45 30.5t18 40.5q0 20 -14 25.5t-39 5.5h-26q-14 -28 -29.5 -55.5t-30.5 -55.5q5 -2 11.5 -2.5t11.5 -0.5z" />
    <glyph glyph-name="uni07E9.init" horiz-adv-x="453" 
d="M15 0q-9 0 -25 5t-24 11v62h271q22 45 41.5 86t33 71.5t18.5 44.5h92q-26 -66 -63.5 -142t-76.5 -152h18q25 0 51.5 -7.5t45 -27t18.5 -54.5q0 -27 -16.5 -56.5t-46.5 -55t-70 -41.5t-87 -16q-49 0 -79 17t-30 43q0 9 16 39t41 74.5t53 97.5l1 1h-182zM210 -195
q26 0 53 12t45 30.5t18 40.5q0 20 -14 25.5t-39 5.5h-26q-14 -28 -29.5 -55.5t-30.5 -55.5q5 -2 11.5 -2.5t11.5 -0.5z" />
    <glyph glyph-name="uni07EA.fina" horiz-adv-x="391" 
d="M39 0v78h112v246h89v-246h185v-78h-185v-272h-89v272h-112z" />
    <glyph glyph-name="uni07EA.medi" horiz-adv-x="391" 
d="M15 0q-9 0 -25 5t-24 11v62h185v246h89v-246h185v-78h-185v-272h-89v272h-136z" />
    <glyph glyph-name="uni07EA.init" horiz-adv-x="391" 
d="M15 0q-9 0 -25 5t-24 11v62h185v246h89v-246h112v-78h-112v-272h-89v272h-136z" />
    <glyph glyph-name="uni200C" unicode="&#x200c;" 
d="M-18 89v725h36v-725h-36z" />
    <glyph glyph-name="uni200D" unicode="&#x200d;" 
d="M-18 89v579l-65 -66l-24 23l84 83l-84 82l24 24l83 -84l83 84l24 -24l-84 -82l84 -83l-24 -23l-65 66v-579h-36z" />
    <glyph glyph-name="uni200E" unicode="&#x200e;" 
d="M-18 89v638h165l-67 63l24 24l106 -105l-106 -105l-24 24l67 64h-130v-603h-35z" />
    <glyph glyph-name="uni200F" unicode="&#x200f;" 
d="M-18 89v603h-129l66 -64l-23 -24l-106 105l106 105l23 -24l-66 -63h164v-638h-35z" />
    <glyph glyph-name="uni25CC" unicode="&#x25cc;" horiz-adv-x="594" 
d="M297 488q-11 0 -18.5 8t-7.5 18t7.5 18t18.5 8t18.5 -8t7.5 -18t-7.5 -18t-18.5 -8zM213 470q-11 0 -18.5 8t-7.5 18t7.5 18t18.5 8t18.5 -8t7.5 -18t-7.5 -18t-18.5 -8zM381 470q-11 0 -18.5 8t-7.5 18t7.5 18t18.5 8t18.5 -8t7.5 -18t-7.5 -18t-18.5 -8zM455 423
q-11 0 -18.5 7.5t-7.5 18.5t7.5 18.5t18.5 7.5t18.5 -7.5t7.5 -18.5t-7.5 -18.5t-18.5 -7.5zM139 423q-11 0 -18.5 7.5t-7.5 18.5t7.5 18.5t18.5 7.5t18.5 -7.5t7.5 -18.5t-7.5 -18.5t-18.5 -7.5zM92 349q-10 0 -18 7.5t-8 18.5t8 18.5t18 7.5t18 -7.5t8 -18.5t-8 -18.5
t-18 -7.5zM502 349q-10 0 -18 7.5t-8 18.5t8 18.5t18 7.5t18 -7.5t8 -18.5t-8 -18.5t-18 -7.5zM74 265q-10 0 -18 7.5t-8 18.5t8 18.5t18 7.5t18 -7.5t8 -18.5t-8 -18.5t-18 -7.5zM520 265q-10 0 -18 7.5t-8 18.5t8 18.5t18 7.5t18 -7.5t8 -18.5t-8 -18.5t-18 -7.5zM92 181
q-10 0 -18 7.5t-8 18.5t8 18.5t18 7.5t18 -7.5t8 -18.5t-8 -18.5t-18 -7.5zM502 181q-10 0 -18 7.5t-8 18.5t8 18.5t18 7.5t18 -7.5t8 -18.5t-8 -18.5t-18 -7.5zM139 107q-11 0 -18.5 7.5t-7.5 18.5t7.5 18.5t18.5 7.5t18.5 -7.5t7.5 -18.5t-7.5 -18.5t-18.5 -7.5zM455 107
q-11 0 -18.5 7.5t-7.5 18.5t7.5 18.5t18.5 7.5t18.5 -7.5t7.5 -18.5t-7.5 -18.5t-18.5 -7.5zM213 60q-11 0 -18.5 8t-7.5 18t7.5 18t18.5 8t18.5 -8t7.5 -18t-7.5 -18t-18.5 -8zM381 60q-11 0 -18.5 8t-7.5 18t7.5 18t18.5 8t18.5 -8t7.5 -18t-7.5 -18t-18.5 -8zM297 42
q-11 0 -18.5 8t-7.5 18t7.5 18t18.5 8t18.5 -8t7.5 -18t-7.5 -18t-18.5 -8z" />
    <glyph glyph-name="uni2E1C" unicode="&#x2e1c;" horiz-adv-x="600" 
d="M476 54l-411 410l54 54l410 -411z" />
    <glyph glyph-name="uni2E1D" unicode="&#x2e1d;" horiz-adv-x="600" 
d="M128 54l-53 53l410 411l54 -54z" />
    <glyph glyph-name="uniFD3E" unicode="&#xfd3e;" horiz-adv-x="500" 
d="M428 797q-11 10 -19.5 17t-12.5 13l12 12t20 21l30 -30q-15 -20 -30 -33zM211 319q-33 0 -54 47q29 6 47.5 12t34 13t33.5 18l1 50v124q1 74 21 119.5t81 64.5l53 17l12 -34l-24 -8q-29 -10 -41.5 -32t-17.5 -66l-24 -194q-1 -14 -9.5 -30.5t-23.5 -42.5l-10 -18
q-24 -17 -46.5 -28.5t-32.5 -11.5zM80 293q-42 32 -72 65q20 19 37 37.5t33 36.5q15 -17 32 -33.5t35 -32.5q-25 -35 -65 -73zM428 -75l-53 18q-85 28 -95 118q-3 25 -5.5 65t-3.5 96q-1 29 -3 51t-4 36l31 19q14 -24 23 -45t15 -48t11.5 -67t12.5 -103q5 -47 18.5 -68
t40.5 -30l24 -8zM428 -151q-21 16 -32 30l12 12t20 21l30 -30q-15 -20 -30 -33z" />
    <glyph glyph-name="uniFD3F" unicode="&#xfd3f;" horiz-adv-x="500" 
d="M72 796q-14 16 -30 30q10 14 30 33q21 -16 32 -30zM206 380q-20 35 -32.5 75.5t-19.5 101.5l-10 86q-5 46 -18.5 67t-40.5 31l-25 9l12 34l53 -18q43 -15 65 -40t29.5 -60.5t8 -80t1.5 -98.5q1 -30 3 -52t5 -36zM422 277q-15 17 -31.5 33t-34.5 32q13 18 29 36.5t36 37.5
q20 -16 38 -33t33 -33q-39 -37 -70 -73zM72 -76l-12 34l24 8q27 9 40.5 30.5t19.5 67.5l25 201q1 10 9.5 25.5t22.5 40.5l10 18q21 16 45 28t34 12q33 0 53 -47q-28 -6 -45.5 -11.5t-33 -13t-36.5 -18.5v-158q0 -56 -8 -95.5t-30 -64.5t-65 -39zM72 -151l-30 29q10 14 30 33
q18 -14 32 -29z" />
    <glyph glyph-name="uni00A0" unicode="&#xa0;" horiz-adv-x="260" 
 />
  </font>
</defs>
</svg>
